Miss Bala 2019 720p HDCAM LLG torrent download

seeders: 402
leechers: 100
updated:
Added ago by LifeLongg ***** in Movies
Torrent Downloaded 10 times.
Info Hash: 6C3579A07F579C993D9FA83C016CB260FEC41C18


Torrent Files

Miss Bala 2019 720p HDCAM LLG (Size: 1.6 GB)
  Miss Bala 2019 720p HDCAM LLG 1.6 GB

Torrent Description



Quote:




******************************Thumbnail:**********************



******************************Screenshots:********************

Screenshot 1

Screenshot 2

Screenshot 3

Screenshot 4

Screenshot 5

Screenshot 6

Screenshot 7

Screenshot 8

Screenshot 9

Screenshot 0


******************************************************

Miss Bala 2019 720p HDCAM.LLG.mp4
Format : MPEG-4
Format profile : Base Media
Codec ID : isom (isom/iso2/avc1/mp41)
File size : 1.55 GiB
Duration : 1 h 40 min
Overall bit rate mode : Variable
Overall bit rate : 2 207 kb/s


Video
ID : 1
Format : AVC
Format/Info : Advanced Video Codec
Format profile : [email protected]
Format settings : CABAC / 1 Ref Frames
Format settings, CABAC : Yes
Format settings, RefFrames : 1 frame
Codec ID : avc1
Codec ID/Info : Advanced Video Coding
Duration : 1 h 40 min
Bit rate mode : Variable
Bit rate : 2 012 kb/s
Maximum bit rate : 6 000 kb/s
Width : 1 280 pixels
Height : 536 pixels
Display aspect ratio : 2.40:1
Frame rate mode : Constant
Frame rate : 29.970 (29970/1000) FPS
Original frame rate : 29.970 (30000/1001) FPS
Color space : YUV
Chroma subsampling : 4:2:0
Bit depth : 8 bits
Scan type : Progressive
Bits/(Pixel*Frame) : 0.098
Stream size : 1.41 GiB (91%)


Audio
ID : 2
Format : AC-3
Format/Info : Audio Coding 3
Commercial name : Dolby Digital
Codec ID : ac-3
Duration : 1 h 40 min
Bit rate mode : Constant
Bit rate : 192 kb/s
Channel(s) : 2 channels
Channel layout : L R
Sampling rate : 48.0 kHz
Frame rate : 31.250 FPS (1536 SPF)
Bit depth : 16 bits
Compression mode : Lossy
Stream size : 138 MiB (9%)
Service kind : Complete Main
Default : Yes
Alternate group : 1




********************************************************




Related Torrents

torrent name size age seed leech
557.7 MB 2 minutes 262 84
1.7 GB 2 minutes 756 493
871.6 MB 3 minutes 240 331
2.8 GB 3 minutes 444 94
1.0 GB 10 minutes 580 245

Sharing Widget


Download torrent
1.6 GB
seeders:1214
leechers:386
Miss Bala 2019 720p HDCAM LLG



To share this torrent use the code below and insert it into comments, status messages, forum posts or your signature.

Torrent: Miss Bala 2019 720p HDCAM LLG

Comments

Latest Searches