Inception (2010) 1080p BluRay x264 Dual Audio [Hindi DD2 0 English DD5 1] ESUBS ~ Ranvijay torrent download

seeders: 755
leechers: 440
updated:
Added ago by TheFighter ***** in Movies
Torrent Downloaded 10 times.
Info Hash: 9E76A5AE507806ABB758C00C41890C815B1DA7FB


Torrent Files

Inception (2010) 1080p BluRay x264 Dual Audio [Hindi DD2 0 - English DD5 1] - ESUBS ~ Ranvijay (Size: 4.8 GB)
  Inception (2010) 1080p BluRay x264 Dual Audio [Hindi DD2 0 - English DD5 1] - ESUBS ~ Ranvijay 4.8 GB

Torrent Description









Inception (2010) 1080p BluRay x264 Dual Audio [Hindi DD2.0 - English DD5.1] - ESUBS ~ Ranvijay


Buy RDP Online




Format : Matroska
Format version : Version 4 / Version 2
File size : 4.80 GiB
Duration : 2 h 28 min
Overall bit rate : 4 638 kb/s
Movie name : Inception (2010) 1080p BluRay x264 Dual Audio [Hindi DD2.0 - English DD5.1] - ESUBS ~ Ranvijay

Video
ID : 1
Format : AVC
Duration : 2 h 28 min
Bit rate : 4 000 kb/s
Width : 1 920 pixels
Height : 800 pixels
Display aspect ratio : 2.40:1
Frame rate mode : Constant
Frame rate : 23.976 (24000/1001) FPS
Color space : YUV
Chroma subsampling : 4:2:0
Bit depth : 8 bits
Scan type : Progressive
Bits/(Pixel*Frame) : 0.109
Stream size : 4.14 GiB (86%)
Title : ~Ranvijay~

Audio #1
ID : 2
Format : AC-3
Format/Info : Audio Coding 3
Codec ID : A_AC3
Duration : 2 h 28 min
Bit rate mode : Constant
Bit rate : 224 kb/s
Channel(s) : 2 channels
Channel positions : Front: L R
Sampling rate : 48.0 kHz
Frame rate : 31.250 FPS (1536 SPF)
Bit depth : 16 bits
Compression mode : Lossy
Stream size : 237 MiB (5%)
Title : ~Ranvijay~
Language : Hindi
Service kind : Complete Main
Default : Yes
Forced : Yes

Audio #2
ID : 3
Format : AC-3
Format/Info : Audio Coding 3
Codec ID : A_AC3
Duration : 2 h 28 min
Bit rate mode : Constant
Bit rate : 384 kb/s
Channel(s) : 6 channels
Channel positions : Front: L C R, Side: L R, LFE
Sampling rate : 48.0 kHz
Frame rate : 31.250 FPS (1536 SPF)
Bit depth : 16 bits
Compression mode : Lossy
Stream size : 407 MiB (8%)
Title : ~Ranvijay~
Language : English
Service kind : Complete Main
Default : No
Forced : No

Text #1
ID : 4
Format : PGS
Muxing mode : zlib
Codec ID : S_HDMV/PGS
Codec ID/Info : Picture based subtitle format used on BDs/HD-DVDs
Duration : 2 h 27 min
Bit rate : 32.7 kb/s
Count of elements : 3482
Stream size : 34.4 MiB (1%)
Title : ~Ranvijay~
Language : English
Default : Yes
Forced : Yes

Text #2
ID : 5
Format : PGS
Muxing mode : zlib
Codec ID : S_HDMV/PGS
Codec ID/Info : Picture based subtitle format used on BDs/HD-DVDs
Duration : 2 h 27 min
Bit rate : 32.7 kb/s
Count of elements : 3482
Stream size : 34.4 MiB (1%)
Title : ~Ranvijay~
Language : English
Default : No
Forced : No

Menu
00:00:00.000 : :Chapter 01
00:11:41.742 : :Chapter 02
00:21:37.337 : :Chapter 03
00:31:20.336 : :Chapter 04
00:41:22.229 : :Chapter 05
00:51:13.737 : :Chapter 06
01:01:21.552 : :Chapter 07
01:10:29.683 : :Chapter 08
01:22:15.597 : :Chapter 09
01:31:52.590 : :Chapter 10
01:40:38.532 : :Chapter 11
01:51:22.175 : :Chapter 12
02:00:54.413 : :Chapter 13
02:10:09.051 : :Chapter 14
02:20:55.446 : :Chapter 15
02:28:07.711 : :Chapter 16


















Don't walk as you are king, walk as you don't care who the king is....!!




Related Torrents

torrent name size age seed leech
879.1 MB 5 minutes 130 136
241.0 MB 5 minutes 572 165
592.4 MB 5 minutes 275 296
604.0 MB 5 minutes 386 60
3.96 GB 9 minutes 134 375

Sharing Widget


Download torrent
4.8 GB
seeders:1214
leechers:386
Inception (2010) 1080p BluRay x264 Dual Audio [Hindi DD2 0 - English DD5 1] - ESUBS ~ Ranvijay



To share this torrent use the code below and insert it into comments, status messages, forum posts or your signature.

Torrent: Inception (2010) 1080p BluRay x264 Dual Audio [Hindi DD2 0 - English DD5 1] - ESUBS ~ Ranvijay

Comments

Latest Searches