Discarnate (2018) x 824 (1080p) 5 1 2 0 x264 Phun Psyz torrent download

seeders: 42
leechers: 137
updated:
Added ago by PhunPsyz ***** in Movies
Torrent Downloaded 10 times.
Info Hash: A16AACBB02C06AB5904EBF85EA59BC97828E4980


Torrent Files

Discarnate (2018) x 824 (1080p) 5 1 - 2 0 x264 Phun Psyz (Size: 1.7 GB)
  Discarnate (2018) x 824 (1080p) 5 1 - 2 0 x264 Phun Psyz 1.7 GB

Torrent Description



www.imdb.com/title/tt4685940/

A neuroscientist's obsession with a drug that expands the human mind inadvertently unleashes a deadly supernatural force on his team.

Source: PussyFoot







Format : MPEG-4
Format profile : Base Media / Version 2
Codec ID : mp42 (isom/iso2/avc1/mp41)
File size : 1.70 GiB
Duration : 1 h 27 min
Overall bit rate mode : Variable
Overall bit rate : 2 787 kb/s
Writing application : HandBrake 1.2.0 2018121700

Video
ID : 1
Format : AVC
Format/Info : Advanced Video Codec
Format profile : [email protected]
Format settings : CABAC / 1 Ref Frames
Format settings, CABAC : Yes
Format settings, ReFrames : 1 frame
Codec ID : avc1
Codec ID/Info : Advanced Video Coding
Duration : 1 h 27 min
Bit rate : 2 298 kb/s
Width : 1 920 pixels
Height : 824 pixels
Display aspect ratio : 2.35:1
Frame rate : 23.976 (24000/1001) FPS
Color space : YUV
Chroma subsampling : 4:2:0
Bit depth : 8 bits
Scan type : Progressive
Bits/(Pixel*Frame) : 0.061
Stream size : 1.40 GiB (82%)
Writing library : x264 core 157 r2935 545de2f

Audio #1
ID : 2
Format : AC-3
Format/Info : Audio Coding 3
Commercial name : Dolby Digital
Codec ID : ac-3
Duration : 1 h 27 min
Bit rate mode : Constant
Bit rate : 320 kb/s
Channel(s) : 6 channels
Channel layout : L R C LFE Ls Rs
Sampling rate : 48.0 kHz
Frame rate : 31.250 FPS (1536 SPF)
Bit depth : 16 bits
Compression mode : Lossy
Stream size : 200 MiB (11%)
Title : Surround
Language : English

Audio #2
ID : 3
Format : AAC LC
Format/Info : Advanced Audio Codec Low Complexity
Codec ID : mp4a-40-2
Duration : 1 h 27 min
Bit rate mode : Constant
Bit rate : 161 kb/s
Channel(s) : 2 channels
Channel layout : L R
Sampling rate : 48.0 kHz
Frame rate : 46.875 FPS (1024 SPF)
Compression mode : Lossy
Stream size : 100 MiB (6%)
Title : Stereo
Language : English

Text
Language : English
Default : Yes
Forced : No



Related Torrents

torrent name size age seed leech
4.7 GB 1 minute 681 214
449.1 MB 5 minutes 136 167
209.6 MB 5 minutes 350 36
56.3 MB 8 minutes 400 236
884.4 MB 8 minutes 283 52

Sharing Widget


Download torrent
1.7 GB
seeders:1214
leechers:386
Discarnate (2018) x 824 (1080p) 5 1 - 2 0 x264 Phun Psyz



To share this torrent use the code below and insert it into comments, status messages, forum posts or your signature.

Torrent: Discarnate (2018) x 824 (1080p) 5 1 - 2 0 x264 Phun Psyz

Comments

Latest Searches